We'll Meet Again S01 1080p WEBRip AAC2.0 x264-NTb

Download We'll Meet Again S01 1080p WEBRip AAC2.0 x264-NTb 
Small Description
Basic Info
Uploaded bydpc (Uploader) at 2018-03-13 22:08:33
Action
Social
  • 0
Hot Meter
  • Views: 320
  • Hits: 4
  • Snatched: 0 x time(s)
  • Last Action: 2018-04-30 23:56:54
Peers0 Seeder | 0 Leecher
We'll Meet Again S01 1080p WEBRip AAC2.0 x264-NTb screenshots


Quote
Video
ID                                       : 1
Format                                   : AVC
Format/Info                              : Advanced Video Codec
Format profile                           : High@L4
Format settings                          : CABAC / 3 Ref Frames
Format settings, CABAC                   : Yes
Format settings, ReFrames                : 3 frames
Codec ID                                 : V_MPEG4/ISO/AVC
Duration                                 : 53 min 42 s
Bit rate mode                            : Constant
Bit rate                                 : 6 500 kb/s
Width                                    : 1 920 pixels
Height                                   : 1 080 pixels
Display aspect ratio                     : 16:9
Frame rate mode                          : Constant
Frame rate                               : 29.970 (30000/1001) FPS
Color space                              : YUV
Chroma subsampling                       : 4:2:0
Bit depth                                : 8 bits
Scan type                                : Progressive
Bits/(Pixel*Frame)                       : 0.105
Stream size                              : 2.44 GiB (99%)
Default                                  : Yes
Forced                                   : No

Audio
ID                                       : 2
Format                                   : AAC
Format/Info                              : Advanced Audio Codec
Format profile                           : LC
Codec ID                                 : A_AAC-2
Duration                                 : 53 min 42 s
Bit rate                                 : 93.4 kb/s
Channel(s)                               : 2 channels
Channel positions                        : Front: L R
Sampling rate                            : 48.0 kHz
Frame rate                               : 46.875 FPS (1024 SPF)
Compression mode                         : Lossy
Delay relative to video                  : -33 ms
Stream size                              : 35.9 MiB (1%)
Language                                 : English
Default                                  : Yes
Forced                                   : No

Text
ID                                       : 3
Format                                   : UTF-8
Codec ID                                 : S_TEXT/UTF8
Codec ID/Info                            : UTF-8 Plain Text
Duration                                 : 53 min 37 s
Bit rate                                 : 107 b/s
Count of elements                        : 911
Stream size                              : 42.3 KiB (0%)
Title                                    : English
Language                                 : English
Default                                  : No
Forced                                   : No



We'll Meet Again S01 1080p WEBRip AAC2.0 x264-NTb screenshots


We'll Meet Again S01 1080p WEBRip AAC2.0 x264-NTb screenshots
We'll Meet Again S01 1080p WEBRip AAC2.0 x264-NTb screenshots
We'll Meet Again S01 1080p WEBRip AAC2.0 x264-NTb screenshots



We'll Meet Again S01 1080p WEBRip AAC2.0 x264-NTb screenshots



TitleWe'll Meet Again
Year2018
GenreDocumentary
Rating9 (11 votes)
Plotn/A
Directorn/A
CastsAnn Curry
Runtime50 min
GenresDocumentary
We


Tags

Other releases

Same genre with We'll Meet Again S01 1080p WEBRip AAC2.0 x264-NTb

Criminal Minds Beyond Borders S01E04 720p HDTV X264-DIMENSIONMaster Of Destiny 2015 720p HDTV DD2.0 H.264 Little House on the Prairie S07 720p BluRay DD2.0 x264-VietHDThe Leftovers S02E09 720p HDTV x264-KILLERSDae Jang Geum [Full 54 Tập] [DVDRip] [USLT]Ranh Giới Trắng Đen 2014 (30 EPS) USLT

Comment for We'll Meet Again S01 1080p WEBRip AAC2.0 x264-NTb

Only members can create comment.