Wildest Arctic S01 1080p AMZN WEBRip DDP2.0 x264-QOQ

Download Wildest Arctic S01 1080p AMZN WEBRip DDP2.0 x264-QOQ 
Small Description
Basic Info
Uploaded bydpc (Uploader) at 2018-03-13 13:48:55
Action
Social
  • 0
Hot Meter
  • Views: 335
  • Hits: 22
  • Snatched: 8 x time(s)
  • Last Action: 2018-08-01 12:16:02
Peers0 Seeder | 0 Leecher
Wildest Arctic S01 1080p AMZN WEBRip DDP2.0 x264-QOQ screenshots


Quote
Video
ID                                       : 1
Format                                   : AVC
Format/Info                              : Advanced Video Codec
Format profile                           : High@L4
Format settings                          : CABAC / 4 Ref Frames
Format settings, CABAC                   : Yes
Format settings, ReFrames                : 4 frames
Codec ID                                 : V_MPEG4/ISO/AVC
Duration                                 : 50 min 26 s
Bit rate mode                            : Variable
Bit rate                                 : 13.6 Mb/s
Maximum bit rate                         : 15.0 Mb/s
Width                                    : 1 920 pixels
Height                                   : 1 080 pixels
Display aspect ratio                     : 16:9
Frame rate mode                          : Constant
Frame rate                               : 25.000 FPS
Color space                              : YUV
Chroma subsampling                       : 4:2:0
Bit depth                                : 8 bits
Scan type                                : Progressive
Bits/(Pixel*Frame)                       : 0.263
Stream size                              : 4.80 GiB (98%)
Default                                  : Yes
Forced                                   : No
Color range                              : Limited
Color primaries                          : BT.709
Transfer characteristics                 : BT.709
Matrix coefficients                      : BT.709

Audio
ID                                       : 2
Format                                   : E-AC-3
Format/Info                              : Enhanced Audio Coding 3
Codec ID                                 : A_EAC3
Duration                                 : 50 min 26 s
Bit rate mode                            : Constant
Bit rate                                 : 224 kb/s
Channel(s)                               : 2 channels
Channel positions                        : Front: L R
Sampling rate                            : 48.0 kHz
Frame rate                               : 187.500 FPS (256 SPF)
Compression mode                         : Lossy
Stream size                              : 80.8 MiB (2%)
Language                                 : English
Service kind                             : Complete Main
Default                                  : Yes
Forced                                   : No

Text #1
ID                                       : 3
Format                                   : UTF-8
Codec ID                                 : S_TEXT/UTF8
Codec ID/Info                            : UTF-8 Plain Text
Duration                                 : 49 min 36 s
Bit rate                                 : 51 b/s
Count of elements                        : 486
Stream size                              : 18.8 KiB (0%)
Language                                 : English
Default                                  : No
Forced                                   : No

Text #2
ID                                       : 4
Format                                   : UTF-8
Codec ID                                 : S_TEXT/UTF8
Codec ID/Info                            : UTF-8 Plain Text
Duration                                 : 49 min 45 s
Bit rate                                 : 52 b/s
Count of elements                        : 494
Stream size                              : 19.0 KiB (0%)
Title                                    : SDH
Language                                 : English
Default                                  : No
Forced                                   : No



Wildest Arctic S01 1080p AMZN WEBRip DDP2.0 x264-QOQ screenshots


Wildest Arctic S01 1080p AMZN WEBRip DDP2.0 x264-QOQ screenshots
Wildest Arctic S01 1080p AMZN WEBRip DDP2.0 x264-QOQ screenshots
Wildest Arctic S01 1080p AMZN WEBRip DDP2.0 x264-QOQ screenshots

TitleWildest Arctic
Year2013
GenreDocumentary
Rating8.4 (78 votes)
Plotn/A
Directorn/A
CastsPaul McGann
Runtime50 min
GenresDocumentary
Wildest Arctic


Tags

Other releases

Same genre with Wildest Arctic S01 1080p AMZN WEBRip DDP2.0 x264-QOQ

Mallorca 2012 720p BluRay DTS 5.1 x264-DONDetriot Unleashed: Motorcity Rescue ViE SDTV AAC2.0 H.264-NTVKhám phá thế giới: Thiên nhiên Nhật Bản - Tập 02 SDTV AAC2.0 H.264-NTVAncient Worlds 2010 EP01 mHD BluRay DD5.1 x264-TRiM Ancient Egyptians: The Twins' Tale 2003 DVDrip [V2T - fanaz]Samsara 2011 1080p Bluray AVC DTS-HD MA 7.1-HDCLUB

Comment for Wildest Arctic S01 1080p AMZN WEBRip DDP2.0 x264-QOQ

Only members can create comment.