NetHD.org

Nâng Cấp RatioTài Khoản VIPDonate VDP

Three Kingdoms 2010 1080i JPN Blu-ray AVC DD5.1-zicheying

Download Three Kingdoms 2010 1080i JPN Blu-ray AVC DD5.1-zicheying 
Client Khuyến nghị cài đặt sử dụng phần mềm qbittorrent để download.
DescriptionThree Kingdoms is a Chinese television series based on the events in the late Eastern Han Dynasty and the Three Kingdoms period. The plot is based on Luo Guanzhong's classical novel Romance of the Three Kingdoms, the historical text Records of the Three Kingdoms, and other related stories. Written by ZAHI
Basic Info
Uploaded byMou (Moderator) at 2015-08-09 21:02:26
Action
Hot Meter
  • Views: 2483
  • Hits: 216
  • Snatched: 22 x time(s)
  • Last Action: 2021-03-04 08:06:34
Peers4 Seeder | 0 Leecher


Three Kingdoms 2010 1080i JPN Blu-ray AVC DD5.1-zicheying screenshots


Trích dẫn
Bộ phim truyền hình dài 95 tập do Trung tâm sản xuất truyền hình Đại học Báo chí và Truyền thông Trung Quốc khởi xướng, hoàn thành với sự kết hợp của nhiều đơn vị điện ảnh có tiếng của Trung Quốc, lấy đề tài từ bộ tiểu thuyết kinh điển Tam Quốc diễn nghĩa và cuốn sử ký Tam Quốc chí.
Bộ phim được xem như “con cưng” của Tổng cục truyền thông Trung Quốc, bắt đầu viết kịch bản từ năm 2004, qua 5 lần chỉnh sửa, chính thức bấm máy vào tháng 9/2008, và đưộc phát sóng lần đầu ở cả Trung Quốc và Nhật Bản vào đầu tháng 5 năm 2010 . Bộ phim quy tụ lực lượng diễn viên hùng hậu với dàn sao đến từ cả Trung Quốc đại lục, Hongkong và Đài Loan với kinh phí đầu tư khổng lồ.
Tam Quốc thông qua thuật lại quá trình từ cuối đời Đông Hán quần hùng cát cứ đến khi thiên hạ quy về nhà Tấn, thể hiện tư tưởng triết học nhân văn, sách lược quân sự, chính trị,… Phim lấy 6 nhân vật trung tâm là Gia Cát Lượng, Tào Tháo, Lưu Bị, Tôn Quyền, Chu Du và Tư Mã Ý, bên cạnh đó là tuyến nhân vật chính và phụ đông đảo: Lã Bố, Đổng Trác, Vương Doãn, Viên Thiệu, Tôn Sách, Lục Tuần… Ngoài trục chính là quá trình hình thành, phát triển thế chân vạc giữa 3 nước Ngụy, Thục, Ngô, bộ phim lần này còn khai thác những tuyến phụ, như tranh giành ngôi thứ trong gia đình họ Tào, rắc rối tình ái giữa Tào Phi, Tào Thực và nàng Chân Phi, bất đồng về chiến lược giữa Gia Cát Lượng và Lưu Bị, mâu thuẫn giữa Chu Du và Tôn Quyền… để tăng tính hấp dẫn cho bộ phim.



Three Kingdoms 2010

21xBD50
06xBD25



DISC INFO:

Disc Title:     BD50
Disc Size:      43,251,839,708 bytes
Protection:     AACS
BD-Java:        No
BDInfo:         0.5.8

PLAYLIST REPORT:

Name:                   00001.MPLS
Length:                 0:00:45.078 (h:m:s.ms)
Size:                   133,945,344 bytes
Total Bitrate:          23.77 Mbps

VIDEO:

Codec                   Bitrate             Description     
-----                   -------             -----------     
MPEG-4 AVC Video        22474 kbps          1080i / 29.970 fps / 16:9 / High Profile 4.1

AUDIO:

Codec                           Language        Bitrate         Description     
-----                           --------        -------         -----------     
Dolby Digital Audio             Japanese        192 kbps        2.0 / 48 kHz / 192 kbps / DN -4dB

FILES:

Name            Time In         Length          Size            Total Bitrate   
----            -------         ------          ----            -------------   
00005.M2TS      0:00:00.000     0:00:21.521     51,468,288      19,132          
00006.M2TS      0:00:21.521     0:00:07.540     27,795,456      29,488          
00007.M2TS      0:00:29.062     0:00:16.015     54,681,600      27,313

*********************************************************


DISC INFO:

Disc Title:     BD25
Disc Size:      22,376,751,630 bytes
Protection:     AACS
BD-Java:        No
BDInfo:         0.5.8

PLAYLIST REPORT:

Name:                   00001.MPLS
Length:                 0:00:45.078 (h:m:s.ms)
Size:                   133,945,344 bytes
Total Bitrate:          23.77 Mbps

VIDEO:

Codec                   Bitrate             Description     
-----                   -------             -----------     
MPEG-4 AVC Video        22474 kbps          1080i / 29.970 fps / 16:9 / High Profile 4.1

AUDIO:

Codec                           Language        Bitrate         Description     
-----                           --------        -------         -----------     
Dolby Digital Audio             Japanese        192 kbps        2.0 / 48 kHz / 192 kbps / DN -4dB

FILES:

Name            Time In         Length          Size            Total Bitrate   
----            -------         ------          ----            -------------   
00005.M2TS      0:00:00.000     0:00:21.521     51,468,288      19,132          
00006.M2TS      0:00:21.521     0:00:07.540     27,795,456      29,488          
00007.M2TS      0:00:29.062     0:00:16.015     54,681,600      27,313 


Three Kingdoms 2010 1080i JPN Blu-ray AVC DD5.1-zicheying screenshots Three Kingdoms 2010 1080i JPN Blu-ray AVC DD5.1-zicheying screenshots Three Kingdoms 2010 1080i JPN Blu-ray AVC DD5.1-zicheying screenshots Three Kingdoms 2010 1080i JPN Blu-ray AVC DD5.1-zicheying screenshots Three Kingdoms 2010 1080i JPN Blu-ray AVC DD5.1-zicheying screenshots Three Kingdoms 2010 1080i JPN Blu-ray AVC DD5.1-zicheying screenshots Three Kingdoms 2010 1080i JPN Blu-ray AVC DD5.1-zicheying screenshots Three Kingdoms 2010 1080i JPN Blu-ray AVC DD5.1-zicheying screenshots Three Kingdoms 2010 1080i JPN Blu-ray AVC DD5.1-zicheying screenshots Three Kingdoms 2010 1080i JPN Blu-ray AVC DD5.1-zicheying screenshots Three Kingdoms 2010 1080i JPN Blu-ray AVC DD5.1-zicheying screenshots Three Kingdoms 2010 1080i JPN Blu-ray AVC DD5.1-zicheying screenshots Three Kingdoms 2010 1080i JPN Blu-ray AVC DD5.1-zicheying screenshots Three Kingdoms 2010 1080i JPN Blu-ray AVC DD5.1-zicheying screenshots Three Kingdoms 2010 1080i JPN Blu-ray AVC DD5.1-zicheying screenshots Three Kingdoms 2010 1080i JPN Blu-ray AVC DD5.1-zicheying screenshots 

TitleTan Tam Quoc
Year2010
GenreDrama
Rating8.3 (881 votes)
PlotThree Kingdoms is a Chinese television series based on the events in the late Eastern Han Dynasty and the Three Kingdoms period. The plot is based on Luo Guanzhong's classical novel Romance of the Three Kingdoms, the historical text Records of the Three Kingdoms, and other related stories. Written by ZAHI
Directorn/A
CastsHewei Yu / Yi Lu / Kai Kang / Jianbin Chen / Rongguang Yu…
Runtime45 min
Tan Tam Quoc

Falcon Rising 2014 1080p Blu-ray AVC DTS-HD MA 5.1-PTPJurassic Park II - The Lost World 1997 ViE mHD BluRay DD5.1 x264-TRiM Worldwide Top 10 Banned Films Collection 1972-2002 1080p Blu-ray AVC & 576i PAL DVD5Kick-Ass 2010 1080p UHD BluRay DDP 7.1 HDR x265-NCmtCrime Story 1993 mHD BluRay DD5.1 x264-TRiMUpstream Color 2013 mHD Bluray DD5.1 x264-TRiM