NetHD.org

Nâng Cấp RatioTài Khoản VIPDonate VDP

Breaking Bad S01-S05 2160p WEB-DL 5xRus Ukr Eng TrollUHD-ULTRAHDCLUB

Download Breaking Bad S01-S05 2160p WEB-DL 5xRus Ukr Eng TrollUHD-ULTRAHDCLUB 
Client Khuyến nghị cài đặt sử dụng phần mềm qbittorrent để download.
DescriptionTập Làm Người Xấu 4K xịn xò
Basic Info
Uploaded byahai1990 (Conqueror) at 2020-10-29 07:33:42
Action
Hot Meter
  • Views: 577
  • Hits: 33
  • Snatched: 3 x time(s)
  • Last Action: 2021-03-04 07:29:53
Peers2 Seeder | 0 Leecher


Trích dẫn
General
Unique ID: 255116581024237167067514748278128974838 (0xBFEDAA90B2DE9DC6B0D551BD012B1BF6)
Complete name: Breaking.Bad.S05E01.2160p.WEB-DL.3xRus.Eng.TrollUHD-ULTRAHDCLUB.mkv
Format: Matroska
Format version: Version 4 / Version 2
File size: 25.1 GiB
Duration: 43mn 28s
Overall bit rate: 82.6 Mbps
Movie name: Breaking Bad - Season 5, Episode 1: Live Free or Die (2012) - Release for ULTRAHDCLUB
Encoded date: UTC 2016-10-30 20:55:51
Writing application: mkvmerge v9.4.0 ('Knurl') 64bit
Writing library: libebml v1.3.4 + libmatroska v1.4.5

Video
ID: 1
Format: AVC
Format/Info: Advanced Video Codec
Format profile: High@L5.1
Format settings, CABAC: Yes
Format settings, ReFrames: 5 frames
Codec ID: V_MPEG4/ISO/AVC
Duration: 42mn 58s
Bit rate: 69.5 Mbps
Width: 3 840 pixels
Height: 2 160 pixels
Display aspect ratio: 16:9
Frame rate mode: Constant
Frame rate: 23.976 (24000/1001) fps
Color space: YUV
Chroma subsampling: 4:2:0
Bit depth: 8 bits
Scan type: Progressive
Bits/(Pixel*Frame): 0.350
Stream size: 20.9 GiB (83%)
Title: Breaking Bad - Season 5, Episode 1: Live Free or Die (2012) - Release for ULTRAHDCLUB
Writing library: x264 core 148 r2638 7599210
Encoding settings: cabac=1 / ref=5 / deblock=1:-2:-2 / analyse=0x3:0x133 / me=umh / subme=10 / psy=1 / psy_rd=1.15:0.00 / mixed_ref=1 / me_range=48 / chroma_me=1 / trellis=2 / 8x8dct=1 / cqm=0 / deadzone=21,11 / fast_pskip=1 / chroma_qp_offset=-2 / threads=12 / lookahead_threads=2 / sliced_threads=0 / nr=0 / decimate=0 / interlaced=0 / bluray_compat=0 / constrained_intra=0 / bframes=8 / b_pyramid=2 / b_adapt=2 / b_bias=0 / direct=3 / weightb=1 / open_gop=0 / weightp=2 / keyint=240 / keyint_min=23 / scenecut=40 / intra_refresh=0 / rc_lookahead=60 / rc=crf / mbtree=1 / crf=18.0 / qcomp=0.70 / qpmin=0 / qpmax=69 / qpstep=4 / vbv_maxrate=300000 / vbv_bufsize=300000 / crf_max=0.0 / nal_hrd=none / filler=0 / ip_ratio=1.30 / aq=1:0.70
Language: English
Default: Yes
Forced: No

Audio #1
ID: 2
Format: DTS
Format/Info: Digital Theater Systems
Format profile: MA / Core
Mode: 16
Format settings, Endianness: Big
Codec ID: A_DTS
Duration: 42mn 58s
Bit rate mode: Variable / Constant
Bit rate: 3 415 Kbps / 1 509 Kbps
Channel(s): 6 channels
Channel positions: Front: L C R, Side: L R, LFE
Sampling rate: 48.0 KHz
Frame rate: 93.750 fps (512 spf)
Bit depth: 24 bits
Compression mode: Lossless / Lossy
Stream size: 1.03 GiB (4%)
Title: DTS-HD MA 5.1 @ 3415 kbps
Language: English
Default: Yes
Forced: No

Audio #2
ID: 3
Format: DTS
Format/Info: Digital Theater Systems
Format profile: MA / Core
Mode: 16
Format settings, Endianness: Big
Codec ID: A_DTS
Duration: 43mn 28s
Bit rate mode: Variable / Constant
Bit rate: 3 428 Kbps / 1 509 Kbps
Channel(s): 6 channels
Channel positions: Front: L C R, Side: L R, LFE
Sampling rate: 48.0 KHz
Frame rate: 93.750 fps (512 spf)
Bit depth: 24 bits
Compression mode: Lossless / Lossy
Stream size: 1.04 GiB (4%)
Title: DTS-HD MA 5.1 @ 3468 kbps - MVO, LostFilm
Language: Russian
Default: No
Forced: No

Audio #3
ID: 4
Format: DTS
Format/Info: Digital Theater Systems
Format profile: MA / Core
Mode: 16
Format settings, Endianness: Big
Codec ID: A_DTS
Duration: 42mn 58s
Bit rate mode: Variable / Constant
Bit rate: 3 451 Kbps / 1 509 Kbps
Channel(s): 6 channels
Channel positions: Front: L C R, Side: L R, LFE
Sampling rate: 48.0 KHz
Frame rate: 93.750 fps (512 spf)
Bit depth: 24 bits
Compression mode: Lossless / Lossy
Stream size: 1.04 GiB (4%)
Title: DTS-HD MA 5.1 @ 3451 kbps - DVO, KvK
Language: Russian
Default: No
Forced: No

Audio #4
ID: 5
Format: DTS
Format/Info: Digital Theater Systems
Format profile: MA / Core
Mode: 16
Format settings, Endianness: Big
Codec ID: A_DTS
Duration: 42mn 58s
Bit rate mode: Variable / Constant
Bit rate: 3 456 Kbps / 1 509 Kbps
Channel(s): 6 channels
Channel positions: Front: L C R, Side: L R, LFE
Sampling rate: 48.0 KHz
Frame rate: 93.750 fps (512 spf)
Bit depth: 24 bits
Compression mode: Lossless / Lossy
Delay relative to video: 21ms
Stream size: 1.04 GiB (4%)
Title: DTS-HD MA 5.1 @ 3451 kbps - MVO, AMEDIA
Language: Russian
Default: No
Forced: No

Text #1
ID: 6
Format: PGS
Muxing mode: zlib
Codec ID: S_HDMV/PGS
Codec ID/Info: Picture based subtitle format used on BDs/HD-DVDs
Duration: 42mn 2s
Bit rate: 12.1 Kbps
Count of elements: 944
Stream size: 3.63 MiB (0%)
Language: English
Default: No
Forced: No

Text #2
ID: 7
Format: PGS
Muxing mode: zlib
Codec ID: S_HDMV/PGS
Codec ID/Info: Picture based subtitle format used on BDs/HD-DVDs
Duration: 42mn 19s
Bit rate: 7 834 bps
Count of elements: 1030
Stream size: 2.37 MiB (0%)
Language: English
Default: No
Forced: No

Text #3
ID: 8
Format: PGS
Muxing mode: zlib
Codec ID: S_HDMV/PGS
Codec ID/Info: Picture based subtitle format used on BDs/HD-DVDs
Duration: 42mn 2s
Bit rate: 9 695 bps
Count of elements: 962
Stream size: 2.92 MiB (0%)
Language: Arabic
Default: No
Forced: No

Text #4
ID: 9
Format: PGS
Muxing mode: zlib
Codec ID: S_HDMV/PGS
Codec ID/Info: Picture based subtitle format used on BDs/HD-DVDs
Duration: 42mn 2s
Bit rate: 11.0 Kbps
Count of elements: 962
Stream size: 3.32 MiB (0%)
Language: Danish
Default: No
Forced: No

Text #5
ID: 10
Format: PGS
Muxing mode: zlib
Codec ID: S_HDMV/PGS
Codec ID/Info: Picture based subtitle format used on BDs/HD-DVDs
Duration: 42mn 2s
Bit rate: 10.8 Kbps
Count of elements: 948
Stream size: 3.25 MiB (0%)
Language: Dutch
Default: No
Forced: No

Text #6
ID: 11
Format: PGS
Muxing mode: zlib
Codec ID: S_HDMV/PGS
Codec ID/Info: Picture based subtitle format used on BDs/HD-DVDs
Duration: 42mn 2s
Bit rate: 10.8 Kbps
Count of elements: 962
Stream size: 3.24 MiB (0%)
Language: Finnish
Default: No
Forced: No

Text #7
ID: 12
Format: PGS
Muxing mode: zlib
Codec ID: S_HDMV/PGS
Codec ID/Info: Picture based subtitle format used on BDs/HD-DVDs
Duration: 42mn 53s
Bit rate: 10.6 Kbps
Count of elements: 902
Stream size: 3.25 MiB (0%)
Language: French
Default: No
Forced: No

Text #8
ID: 13
Format: PGS
Muxing mode: zlib
Codec ID: S_HDMV/PGS
Codec ID/Info: Picture based subtitle format used on BDs/HD-DVDs
Duration: 42mn 2s
Bit rate: 11.2 Kbps
Count of elements: 958
Stream size: 3.37 MiB (0%)
Language: Norwegian
Default: No
Forced: No

Text #9
ID: 14
Format: PGS
Muxing mode: zlib
Codec ID: S_HDMV/PGS
Codec ID/Info: Picture based subtitle format used on BDs/HD-DVDs
Duration: 42mn 2s
Bit rate: 12.1 Kbps
Count of elements: 968
Stream size: 3.64 MiB (0%)
Language: Spanish
Default: No
Forced: No

Text #10
ID: 15
Format: PGS
Muxing mode: zlib
Codec ID: S_HDMV/PGS
Codec ID/Info: Picture based subtitle format used on BDs/HD-DVDs
Duration: 42mn 2s
Bit rate: 12.5 Kbps
Count of elements: 964
Stream size: 3.77 MiB (0%)
Language: Spanish
Default: No
Forced: No

Text #11
ID: 16
Format: PGS
Muxing mode: zlib
Codec ID: S_HDMV/PGS
Codec ID/Info: Picture based subtitle format used on BDs/HD-DVDs
Duration: 42mn 2s
Bit rate: 11.1 Kbps
Count of elements: 960
Stream size: 3.33 MiB (0%)
Language: Swedish
Default: No
Forced: No

Text #12
ID: 17
Format: PGS
Muxing mode: zlib
Codec ID: S_HDMV/PGS
Codec ID/Info: Picture based subtitle format used on BDs/HD-DVDs
Duration: 42mn 23s
Bit rate: 26.0 Kbps
Count of elements: 1561
Stream size: 7.89 MiB (0%)
Language: Dutch
Default: No
Forced: No

Text #13
ID: 18
Format: PGS
Muxing mode: zlib
Codec ID: S_HDMV/PGS
Codec ID/Info: Picture based subtitle format used on BDs/HD-DVDs
Duration: 42mn 23s
Bit rate: 19.3 Kbps
Count of elements: 1645
Stream size: 5.87 MiB (0%)
Language: French
Default: No
Forced: No

Text #14
ID: 19
Format: PGS
Muxing mode: zlib
Codec ID: S_HDMV/PGS
Codec ID/Info: Picture based subtitle format used on BDs/HD-DVDs
Duration: 42mn 23s
Bit rate: 28.3 Kbps
Count of elements: 1645
Stream size: 8.58 MiB (0%)
Language: Spanish
Default: No
Forced: No

Text #15
ID: 20
Format: PGS
Muxing mode: zlib
Codec ID: S_HDMV/PGS
Codec ID/Info: Picture based subtitle format used on BDs/HD-DVDs
Duration: 42mn 2s
Bit rate: 12.1 Kbps
Count of elements: 944
Stream size: 3.63 MiB (0%)
Language: English
Default: No
Forced: No.

TitleTập Làm Người Xấu
Year2008
GenreCrime
Rating9.5 (1,475,897 votes)
PlotWhen chemistry teacher Walter White is diagnosed with Stage III cancer and given only two years to live, he decides he has nothing to lose. He lives with his teenage son, who has cerebral palsy, and his wife, in New Mexico. Determined to ensure that his family will have a secure future, Walt embarks on a career of drugs and crime. He proves to be remarkably proficient in this new world as he begins manufacturing and selling methamphetamine with one of his former students. The series tracks the…
Directorn/A
CastsBryan Cranston / Anna Gunn / Aaron Paul / Betsy Brandt / RJ Mitte…
Runtime49 min
Tập Làm Người Xấu

No keyword! (Click to edit!)

Official Secrets 2019 1080p BluRay DD+5 1 x264-EAA Good Woman Is Hard to Find 2019 1080p BluRay DTS x264-iFTPiranhas 2019 1080p BluRay DD+5.1 x264-EASuperFly 2018 720p BluRay x264-x0rThe Hatton Garden Job 2017 mHD BluRay DD5.1 x264-TRiMDrive 2011 1080p BluRay DD5.1 x264-SA89