NetHD.org

Nâng Cấp RatioTài Khoản VIPDonate VDP

Game of Thrones 2017 S07 2160p UHD Blu-ray REMUX HEVC HDR DV Atmos TrueHD 7.1-HDVNBits

Download Game of Thrones 2017 S07 2160p UHD Blu-ray REMUX HEVC HDR DV Atmos TrueHD 7.1-HDVNBits 
DescriptionTrò chơi vương quyền Phần 7 | Phụ đề Việt | 4K HDR + Dolby Vision |
Basic Info
Uploaded byNúp Lùm at 2021-01-11 01:50:46
Action
Hot Meter
  • Views: 177
  • Hits: 18
  • Snatched: 11 x time(s)
  • Last Action: 2021-01-27 00:16:51
Peers5 Seeder | 0 Leecher


Game of Thrones 2017 S07 2160p UHD Blu-ray REMUX HEVC HDR DV Atmos TrueHD 7.1-HDVNBits screenshots

Title: Game of Thrones
Release Date: 17 Apr 2011
Genre: Action, Adventure, Drama, Fantasy, Romance
Directors: N/A
Writers: David Benioff, D.B. Weiss
Actors: Peter Dinklage, Lena Headey, Emilia Clarke, Kit Harington
IMDb Link: https://www.imdb.com/title/tt0944947

Trích dẫn: Introduction
In the mythical continent of Westeros, several powerful families fight for control of the Seven Kingdoms. As conflict erupts in the kingdoms of men, an ancient enemy rises once again to threaten them all. Meanwhile, the last heirs of a recently usurped dynasty plot to take back their homeland from across the Narrow Sea.


Game of Thrones 2017 S07 2160p UHD Blu-ray REMUX HEVC HDR DV Atmos TrueHD 7.1-HDVNBits screenshots Game of Thrones 2017 S07 2160p UHD Blu-ray REMUX HEVC HDR DV Atmos TrueHD 7.1-HDVNBits screenshots Game of Thrones 2017 S07 2160p UHD Blu-ray REMUX HEVC HDR DV Atmos TrueHD 7.1-HDVNBits screenshots

General
Unique ID                                : 244150998218528433985751071601224885298 (0xB7ADC59771CB84C4AD748CDC1448A432)
Complete name                            : E:\Remux\Game of Thrones 2017 S07\Game of Thrones 2017 S07E01 Dragonstone 4K.mkv
Format                                   : Matroska
Format version                           : Version 4
File size                                : 25.1 GiB
Duration                                 : 58 min 41 s
Overall bit rate mode                    : Variable
Overall bit rate                         : 61.3 Mb/s
Movie name                               : Game of Thrones S07E01 Dragonstone 4K
Encoded date                             : UTC 2020-11-25 06:33:01
Writing application                      : mkvmerge v51.0.0 ('I Wish') 64-bit
Writing library                          : libebml v1.4.0 + libmatroska v1.6.2
IMDB                                     : tt0944947
TMDB                                     : tv/1399
TVDB                                     : 121361

Video
ID                                       : 1
ID in the original source medium         : 4113 (0x1011)
Format                                   : HEVC
Format/Info                              : High Efficiency Video Coding
Format profile                           : Main 10@L5.1@High
HDR format                               : Dolby Vision, Version 1.0, dvhe.07.06, BL+EL+RPU, Blu-ray compatible / SMPTE ST 2086, HDR10 compatible
Codec ID                                 : V_MPEGH/ISO/HEVC
Duration                                 : 58 min 41 s
Bit rate                                 : 56.1 Mb/s
Width                                    : 3 840 pixels
Height                                   : 2 160 pixels
Display aspect ratio                     : 16:9
Frame rate mode                          : Constant
Frame rate                               : 23.976 (24000/1001) FPS
Color space                              : YUV
Chroma subsampling                       : 4:2:0 (Type 2)
Bit depth                                : 10 bits
Bits/(Pixel*Frame)                       : 0.282
Stream size                              : 23.0 GiB (91%)
Default                                  : Yes
Forced                                   : No
Color range                              : Limited
Color primaries                          : BT.2020
Transfer characteristics                 : PQ
Matrix coefficients                      : BT.2020 non-constant
Mastering display color primaries        : BT.2020
Mastering display luminance              : min: 0.0020 cd/m2, max: 1000 cd/m2
Original source medium                   : Blu-ray

Audio #1
ID                                       : 2
Format                                   : MLP FBA 16-ch
Format/Info                              : Meridian Lossless Packing FBA with 16-channel presentation
Commercial name                          : Dolby TrueHD with Dolby Atmos
Codec ID                                 : A_TRUEHD
Duration                                 : 58 min 41 s
Bit rate mode                            : Variable
Bit rate                                 : 4 065 kb/s
Maximum bit rate                         : 7 248 kb/s
Channel(s)                               : 8 channels
Channel layout                           : L R C LFE Ls Rs Lb Rb
Sampling rate                            : 48.0 kHz
Frame rate                               : 1 200.000 FPS (40 SPF)
Compression mode                         : Lossless
Stream size                              : 1.67 GiB (7%)
Title                                    : TrueHD Atmos 7.1
Language                                 : English
Default                                  : Yes
Forced                                   : No
Number of dynamic objects                : 15
Bed channel count                        : 1 channel
Bed channel configuration                : LFE

Audio #2
ID                                       : 3
Format                                   : AC-3
Format/Info                              : Audio Coding 3
Commercial name                          : Dolby Digital
Codec ID                                 : A_AC3
Duration                                 : 58 min 41 s
Bit rate mode                            : Constant
Bit rate                                 : 640 kb/s
Channel(s)                               : 6 channels
Channel layout                           : L R C LFE Ls Rs
Sampling rate                            : 48.0 kHz
Frame rate                               : 31.250 FPS (1536 SPF)
Compression mode                         : Lossy
Stream size                              : 269 MiB (1%)
Title                                    : AC-3 5.1-EX
Language                                 : English
Service kind                             : Complete Main
Default                                  : No
Forced                                   : No

Audio #3
ID                                       : 4
Format                                   : AC-3
Format/Info                              : Audio Coding 3
Commercial name                          : Dolby Digital
Codec ID                                 : A_AC3
Duration                                 : 58 min 41 s
Bit rate mode                            : Constant
Bit rate                                 : 448 kb/s
Channel(s)                               : 6 channels
Channel layout                           : L R C LFE Ls Rs
Sampling rate                            : 48.0 kHz
Frame rate                               : 31.250 FPS (1536 SPF)
Compression mode                         : Lossy
Stream size                              : 188 MiB (1%)
Title                                    : Commentary by director Jeremy Podeswa, and actors Gwendoline Christie and John Bradley
Language                                 : English
Service kind                             : Complete Main
Default                                  : No
Forced                                   : No

Text #1
ID                                       : 5
Format                                   : PGS
Muxing mode                              : zlib
Codec ID                                 : S_HDMV/PGS
Codec ID/Info                            : Picture based subtitle format used on BDs/HD-DVDs
Duration                                 : 57 min 10 s
Bit rate                                 : 35.4 kb/s
Count of elements                        : 1454
Stream size                              : 14.5 MiB (0%)
Title                                    : English (SDH)
Language                                 : English
Default                                  : No
Forced                                   : No

Text #2
ID                                       : 6
Format                                   : PGS
Muxing mode                              : zlib
Codec ID                                 : S_HDMV/PGS
Codec ID/Info                            : Picture based subtitle format used on BDs/HD-DVDs
Duration                                 : 58 min 15 s
Bit rate                                 : 36.5 kb/s
Count of elements                        : 1302
Stream size                              : 15.2 MiB (0%)
Language                                 : Vietnamese
Default                                  : Yes
Forced                                   : No

Text #3
ID                                       : 7
Format                                   : UTF-8
Codec ID                                 : S_TEXT/UTF8
Codec ID/Info                            : UTF-8 Plain Text
Duration                                 : 57 min 19 s
Bit rate                                 : 68 b/s
Count of elements                        : 651
Stream size                              : 28.9 KiB (0%)
Language                                 : Vietnamese
Default                                  : No
Forced                                   : No

Menu
00:00:00.000                             : en:Chapter 1
00:05:47.681                             : en:Chapter 2
00:17:05.358                             : en:Chapter 3
00:26:41.099                             : en:Chapter 4
00:35:42.766                             : en:Chapter 5
00:46:41.841                             : en:Chapter 6
00:51:45.477                             : en:Chapter 7
00:57:20.062                             : en:Chapter 8
TitleTrò Chơi Vương Quyền
Year2011
GenreAction
Rating9.3 (1,759,620 votes)
PlotIn the mythical continent of Westeros, several powerful families fight for control of the Seven Kingdoms. As conflict erupts in the kingdoms of men, an ancient enemy rises once again to threaten them all. Meanwhile, the last heirs of a recently usurped dynasty plot to take back their homeland from across the Narrow Sea. Written by Sam Gray
Directorn/A
CastsPeter Dinklage / Lena Headey / Emilia Clarke / Kit Harington / Sophie Turner…
Runtime57 min
Trò Chơi Vương Quyền

[TVB] Silver Spoon Sterling Shackles VNLT MP4 720p HDTV AAC H264 Full 40EpsĐại Thần Hầu - Great God Monkey 2020 1080p WEB-DL AAC H264 TMFamily Guy S11 720p WEB-DL DD5.1 H.264-CtrlHDItaewon Class S01 2020 720p NF WEB-DL DD+ 2.0 x264-ExRENVikings S02.1080p BluRay DD5.1 x264-EbPThe Confidant 2012 ViE 720p HDTV AC3 H264