NetHD.org

Nâng Cấp RatioTài Khoản VIPDonate VDP

Hunter x Hunter S01-S03 completed 1080p Blu-ray REMUX AVC PCM2.0-NoGroup

Download Hunter x Hunter S01-S03 completed 1080p Blu-ray REMUX AVC PCM2.0-NoGroup 
Client Khuyến nghị cài đặt sử dụng phần mềm qbittorrent để download.
DescriptionTrọn Bộ 148 Tập | Lồng Tiếng Anh + Nhật
Basic Info
Uploaded byNúp Lùm at 2020-11-28 15:33:23
Action
Hot Meter
  • Views: 394
  • Hits: 28
  • Snatched: 9 x time(s)
  • Last Action: 2021-03-06 21:22:48
Peers3 Seeder | 0 Leecher


Hunter x Hunter S01-S03 completed 1080p Blu-ray REMUX AVC PCM2.0-NoGroup screenshots


Tên: Hunter x Hunter
Ngày phát hành: 2 Tháng 10 Năm 2011
Thể loại: Hoạt hình, Hành động, Phiêu lưu, Hài hước, Giả tưởng
Đạo diễn: N/A
Kịch bản: Yoshihiro Togashi
Diễn viên: Issei Futamata, Megumi Han, Cristina Valenzuela, Mariya Ise
Liên kết IMDb: https://www.imdb.com/title/tt2098220/

Trích dẫn: Giới thiệu
Hunter x Hunter is set in a world where Hunters exist to perform all manner of dangerous tasks like capturing criminals and bravely searching for lost treasures in uncharted territories. Twelve-year-old Gon Freecss is determined to become the best Hunter possible in hopes of finding his father, who was a Hunter himself and had long ago abandoned his young son. However, Gon soon realizes the path to achieving his goals is far more challenging than he could have ever imagined.

Along the way to becoming an official Hunter, Gon befriends the lively doctor-in-training Leorio, vengeful Kurapika, and rebellious ex-assassin Killua. To attain their own goals and desires, together the four of them take the Hunter Exam, notorious for its low success rate and high probability of death. Throughout their journey, Gon and his friends embark on an adventure that puts them through many hardships and struggles. They will meet a plethora of monsters, creatures, and characters—all while learning what being a Hunter truly means.


Hunter x Hunter S01-S03 completed 1080p Blu-ray REMUX AVC PCM2.0-NoGroup screenshots Hunter x Hunter S01-S03 completed 1080p Blu-ray REMUX AVC PCM2.0-NoGroup screenshots Hunter x Hunter S01-S03 completed 1080p Blu-ray REMUX AVC PCM2.0-NoGroup screenshots Hunter x Hunter S01-S03 completed 1080p Blu-ray REMUX AVC PCM2.0-NoGroup screenshots Hunter x Hunter S01-S03 completed 1080p Blu-ray REMUX AVC PCM2.0-NoGroup screenshots Hunter x Hunter S01-S03 completed 1080p Blu-ray REMUX AVC PCM2.0-NoGroup screenshots


Trích dẫn: Media Info
Format : Matroska
Format version : Version 4 / Version 2
File size : 5.69 GiB
Duration : 23 min 35 s
Overall bit rate mode : Variable
Overall bit rate : 34.5 Mb/s
Encoded date : UTC 2019-10-23 18:33:31
Writing application : mkvmerge v38.0.0 ('The Silent Type') 64-bit
Writing library : libebml v1.3.9 + libmatroska v1.5.2

Video
ID : 1
Format : AVC
Format/Info : Advanced Video Codec
Format profile : High@L4.1
Format settings, CABAC : Yes
Format settings, ReFrames : 3 frames
Codec ID : V_MPEG4/ISO/AVC
Duration : 23 min 35 s
Bit rate mode : Variable
Bit rate : 30.0 Mb/s
Maximum bit rate : 31.0 Mb/s
Width : 1 920 pixels
Height : 1 080 pixels
Display aspect ratio : 16:9
Frame rate mode : Constant
Frame rate : 23.976 (24000/1001) FPS
Color space : YUV
Chroma subsampling : 4:2:0
Bit depth : 8 bits
Scan type : Progressive
Bits/(Pixel*Frame) : 0.603
Stream size : 4.93 GiB (87%)
Writing library : x264 core 146 r2538 121396c
Encoding settings : cabac=1 / ref=4 / deblock=1:-1:-1 / analyse=0x3:0x133 / me=umh / subme=10 / psy=1 / psy_rd=1.00:0.15 / mixed_ref=1 / me_range=24 / chroma_me=1 / trellis=2 / 8x8dct=1 / cqm=0 / deadzone=21,11 / fast_pskip=1 / chroma_qp_offset=-3 / threads=12 / lookahead_threads=1 / sliced_threads=0 / slices=4 / nr=0 / decimate=1 / interlaced=0 / bluray_compat=1 / constrained_intra=0 / bframes=3 / b_pyramid=1 / b_adapt=2 / b_bias=0 / direct=3 / weightb=1 / open_gop=1 / weightp=1 / keyint=24 / keyint_min=1 / scenecut=40 / intra_refresh=0 / rc_lookahead=24 / rc=2pass / mbtree=1 / bitrate=30000 / ratetol=1.0 / qcomp=0.60 / qpmin=0 / qpmax=69 / qpstep=4 / cplxblur=20.0 / qblur=0.5 / vbv_maxrate=31000 / vbv_bufsize=30000 / nal_hrd=vbr / filler=0 / ip_ratio=1.40 / aq=1:1.00
Default : Yes
Forced : No
Color range : Limited
Color primaries : BT.709
Transfer characteristics : BT.709
Matrix coefficients : BT.709

Audio #1
ID : 2
Format : PCM
Codec ID : A_PCM/INT/LIT
Duration : 23 min 35 s
Bit rate mode : Constant
Bit rate : 2 304 kb/s
Channel(s) : 2 channels
Sampling rate : 48.0 kHz
Frame rate : 200.000 FPS (240 spf)
Bit depth : 24 bits
Stream size : 389 MiB (7%)
Language : English
Default : Yes
Forced : No

Audio #2
ID : 3
Format : PCM
Codec ID : A_PCM/INT/LIT
Duration : 23 min 35 s
Bit rate mode : Constant
Bit rate : 2 304 kb/s
Channel(s) : 2 channels
Sampling rate : 48.0 kHz
Frame rate : 200.000 FPS (240 spf)
Bit depth : 24 bits
Stream size : 389 MiB (7%)
Language : Japanese
Default : No
Forced : No

Text #1
ID : 4
Format : PGS
Muxing mode : zlib
Codec ID : S_HDMV/PGS
Codec ID/Info : Picture based subtitle format used on BDs/HD-DVDs
Duration : 23 min 27 s
Bit rate : 36.9 kb/s
Count of elements : 549
Stream size : 6.19 MiB (0%)
Language : English
Default : Yes
Forced : No

Text #2
ID : 5
Format : PGS
Muxing mode : zlib
Codec ID : S_HDMV/PGS
Codec ID/Info : Picture based subtitle format used on BDs/HD-DVDs
Duration : 23 min 12 s
Bit rate : 5 179 b/s
Count of elements : 43
Stream size : 881 KiB (0%)
Language : English
Default : No
Forced : No

Menu
00:00:00.000 : en:Chapter 01
00:01:19.996 : en:Chapter 02
00:10:49.940 : en:Chapter 03
00:21:59.943 : en:Chapter 04
00:23:19.940 : en:Chapter 05

TitleHunter x Hunter
Year2011
GenreAnimation
Rating8.9 (58,893 votes)
PlotGon Freecss is a young boy living on Whale Island. He learns from "Hunter" Kite, that his father, who he was told was dead, is still alive somewhere as a top "Hunter," risking his life to seek unknown items, such as hidden treasures, curiosa, exotic living creatures, etc. Gon decides to become a professional Hunter and leaves the island. To become a Hunter, he must pass the Hunter Examination, where he meets and befriends three other applicants: Kurapika, Leorio and Killua. Can Gon pass this…
Directorn/A
CastsIssei Futamata / Megumi Han / Cristina Valenzuela / Mariya Ise / Michael McConnohie…
Runtime24 min
Hunter x Hunter

No keyword! (Click to edit!)

Dragon Ball Z: Battle of Gods 2013 720p BluRay DD5.1 x264-TayTOShaun the Sheep Movie 2015 1080p BluRay DTS x264-NorTVCaptain Underpants: The First Epic Movie 2017 ViE mHD BluRay DD5.1 x264-[TRiM-JadViE]Pokémon Trọn Bộ [Yumei-Anime] - Last 6-2020 - DVDRip/HD/FHDFairy Tail Blu-ray REMUX AVC PCM2.0 LT + VietsubDespicable Me 2 2013 2160p UHD BluRay DTS-HD MA 7 1 HDR x265-CtrlHD