NetHD.org

Nâng Cấp RatioTài Khoản VIPDonate VDP

Monster Hunter 2020 2160p AMZN WEB-DL x265 10bit HDR10plus DDP5.1-SWTYBLZ

Download Monster Hunter 2020 2160p AMZN WEB-DL x265 10bit HDR10plus DDP5.1-SWTYBLZ 
Client Khuyến nghị cài đặt sử dụng phần mềm qbittorrent để download.
DescriptionPhụ đề Tiếng Việt
Basic Info
Uploaded byBsChau (Veteran User) at 2021-02-17 12:40:37
Action
Hot Meter
  • Views: 497
  • Hits: 103
  • Snatched: 73 x time(s)
  • Last Action: 2021-02-26 04:45:00
Peers22 Seeder | 0 Leecher


General
Format                      : Matroska
Format version              : Version 4
File size                   : 11.0 GiB
Duration                    : 1 h 43 min
Overall bit rate            : 15.3 Mb/s
Movie name                  : Monster.Hunter.2020.2160p.AMZN.WEB-DL.x265.10bit.HDR10plus.DDP5.1-SWTYBLZ
Encoded date                : UTC 2021-02-17 05:09:00
Writing application         : mkvmerge v49.0.0 ('Sick Of Losing Soulmates') 64-bit
Writing library             : libebml v1.4.0 + libmatroska v1.6.1
Cover                       : Yes
Attachments                 : small_cover.jpg / small_cover_land.jpg / cover.jpg / cover_land.jpg

Video
ID                          : 1
Format                      : HEVC
Format/Info                 : High Efficiency Video Coding
Format profile              : Main 10@L5@Main
HDR format                  : SMPTE ST 2094 App 4, Version 1, HDR10+ Profile B compatible
Codec ID                    : V_MPEGH/ISO/HEVC
Duration                    : 1 h 43 min
Bit rate                    : 14.6 Mb/s
Width                       : 3 840 pixels
Height                      : 1 600 pixels
Display aspect ratio        : 2.40:1
Frame rate mode             : Constant
Frame rate                  : 23.976 (24000/1001) FPS
Color space                 : YUV
Chroma subsampling          : 4:2:0
Bit depth                   : 10 bits
Bits/(Pixel*Frame)          : 0.099
Stream size                 : 10.5 GiB (96%)
Default                     : Yes
Forced                      : No
Color range                 : Limited
Color primaries             : BT.2020
Transfer characteristics    : PQ
Matrix coefficients         : BT.2020 non-constant
Mastering display color pri : Display P3
Mastering display luminance : min: 0.0050 cd/m2, max: 4000 cd/m2
Maximum Content Light Level : 1636 cd/m2
Maximum Frame-Average Light : 278 cd/m2

Audio
ID                          : 2
Format                      : E-AC-3
Format/Info                 : Enhanced AC-3
Commercial name             : Dolby Digital Plus
Codec ID                    : A_EAC3
Duration                    : 1 h 43 min
Bit rate mode               : Constant
Bit rate                    : 640 kb/s
Channel(s)                  : 6 channels
Channel layout              : L R C LFE Ls Rs
Sampling rate               : 48.0 kHz
Frame rate                  : 31.250 FPS (1536 SPF)
Compression mode            : Lossy
Stream size                 : 472 MiB (4%)
Title                       : DDP 5.1
Language                    : English
Service kind                : Complete Main
Default                     : Yes
Forced                      : No

Text #1
ID                          : 3
Format                      : UTF-8
Codec ID                    : S_TEXT/UTF8
Codec ID/Info               : UTF-8 Plain Text
Duration                    : 1 h 41 min
Bit rate                    : 21 b/s
Count of elements           : 489
Stream size                 : 15.9 KiB (0%)
Language                    : Vietnamese
Default                     : No
Forced                      : No

Text #2
ID                          : 4
Format                      : UTF-8
Codec ID                    : S_TEXT/UTF8
Codec ID/Info               : UTF-8 Plain Text
Duration                    : 43 min 44 s
Bit rate                    : 0 b/s
Count of elements           : 7
Stream size                 : 172 Bytes (0%)
Title                       : FORCED
Language                    : English
Default                     : Yes
Forced                      : Yes

Thumnail
Monster Hunter 2020 2160p AMZN WEB-DL x265 10bit HDR10plus DDP5.1-SWTYBLZ screenshots
TitleThợ Săn Quái Vật
Year2020
GenreAction
Rating5.3 (15,938 votes)
Plotn/A
DirectorPaul W.S. Anderson
CastsMilla Jovovich / Tony Jaa / Ron Perlman / T.I. / Diego Boneta…
Runtime103 min
Thợ Săn Quái Vật

No keyword! (Click to edit!)

Vampire Academy 2014 1080p BluRay DTS x264-LolHDThe Shape of Water 2017 mHD BluRay DD5.1 x264-TRiMJesus Shows You the Way to the Highway 2019 720p AMZN WEB-DL DDP5 1 H 264-NTGIntimate Enemies 2015 720p HDRip X264 AAC-KTH District 9 2009 UHD BluRay 2160p TrueHD Atmos 7.1 HEVC REMUX-FraMeSToRGodzilla 2014 720p BluRay DTS x264-RightSiZE