NetHD.org

Nâng Cấp RatioTài Khoản VIPDonate VDP

Spider-Man: Into the Spider-Verse 2018 1080p Blu-ray AVC DTS-HD MA 5.1-CiNEMATiC

Download Spider-Man: Into the Spider-Verse 2018 1080p Blu-ray AVC DTS-HD MA 5.1-CiNEMATiC 
Client Khuyến nghị cài đặt sử dụng phần mềm qbittorrent để download.
DescriptionMiles Morales is a New York teen struggling with school, friends and, on top of that, being the new Spider-Man. When he comes across Peter Parker, the erstwhile saviour of New York, in the multiverse, Miles must train to become the new protector of his city. Written by Tom Daly
Basic Info
Uploaded byNúp Lùm at 2019-03-14 13:16:44
Action
Hot Meter
  • Views: 693
  • Hits: 27
  • Snatched: 10 x time(s)
  • Last Action: 2021-03-09 09:45:55
Peers0 Seeder | 0 Leecher


Spider-Man: Into the Spider-Verse 2018 1080p Blu-ray AVC DTS-HD MA 5.1-CiNEMATiC screenshots













Spider-Man: Into the Spider-Verse 2018 1080p Blu-ray AVC DTS-HD MA 5.1-CiNEMATiC screenshots


DISC INFO:

Disc Title:     Spider-Man: Into the Spider-Verse – Blu-ray™
Disc Label:     Spider.Man.Into.The.Spider.Verse.2018.1080p.BluRay.AVC.DTS-HD.MA.5.1-CiNEMATiC
Disc Size:      47,803,793,457 bytes
Protection:     AACS
Extras:         BD-Java
BDInfo:         0.7.5.5

PLAYLIST REPORT:

Name:                   00003.MPLS
Length:                 2:23:31.185 (h:m:s.ms)
Size:                   30,320,265,216 bytes
Total Bitrate:          28.17 Mbps

(*) Indicates included stream hidden by this playlist.

VIDEO:

Codec                   Bitrate             Description    
-----                   -------             -----------    
MPEG-4 AVC Video        21116 kbps          1080p / 23.976 fps / 16:9 / High Profile 4.1

AUDIO:

Codec                           Language        Bitrate         Description    
-----                           --------        -------         -----------    
DTS-HD Master Audio             English         2320 kbps       5.1 / 48 kHz /  2320 kbps / 16-bit (DTS Core: 5.1 / 48 kHz /  1509 kbps / 16-bit)
Dolby Digital Audio             English         640 kbps        5.1 / 48 kHz /   640 kbps / DN -31dB
Dolby Digital Audio             French          640 kbps        5.1 / 48 kHz /   640 kbps / DN -31dB
Dolby Digital Audio             French          640 kbps        5.1 / 48 kHz /   640 kbps / DN -31dB
Dolby Digital Audio             Spanish         640 kbps        5.1 / 48 kHz /   640 kbps / DN -31dB
* Dolby Digital Audio           English         192 kbps        2.0 / 48 kHz /   192 kbps / DN -31dB / Dolby Surround

SUBTITLES:

Codec                           Language        Bitrate         Description    
-----                           --------        -------         -----------    
Presentation Graphics           English         45.623 kbps                    
Presentation Graphics           English         35.007 kbps                    
Presentation Graphics           French          32.675 kbps                    
Presentation Graphics           Spanish         34.171 kbps                    
Presentation Graphics           French          11.181 kbps                    
* Presentation Graphics         English         49.949 kbps                    
* Presentation Graphics         Spanish         39.160 kbps                    

FILES:

Name            Time In         Length          Size            Total Bitrate  
----            -------         ------          ----            -------------  
00410.M2TS      0:00:00.000     0:05:17.942     1,028,591,616   25,881          
00371.M2TS      0:05:17.942     0:07:38.249     1,661,227,008   29,001          
00411.M2TS      0:12:56.192     0:03:09.689     631,117,824     26,617          
00373.M2TS      0:16:05.881     0:03:34.422     775,649,280     28,939          
00412.M2TS      0:19:40.304     0:02:34.988     520,298,496     26,856          
00375.M2TS      0:22:15.292     0:02:43.204     586,653,696     28,757          
00413.M2TS      0:24:58.496     0:10:06.772     2,019,305,472   26,624          
00377.M2TS      0:35:05.269     0:09:56.012     2,174,140,416   29,183          
00414.M2TS      0:45:01.281     0:01:43.478     343,099,392     26,525          
00379.M2TS      0:46:44.760     0:01:33.676     338,356,224     28,896          
00415.M2TS      0:48:18.437     0:04:54.210     977,866,752     26,590          
00381.M2TS      0:53:12.647     0:03:23.494     729,053,184     28,661          
00416.M2TS      0:56:36.142     0:01:45.730     352,315,392     26,658          
00383.M2TS      0:58:21.873     0:02:18.346     499,009,536     28,856          
00417.M2TS      1:00:40.219     0:01:22.123     271,976,448     26,494          
00385.M2TS      1:02:02.343     0:02:08.128     463,982,592     28,970          
00418.M2TS      1:04:10.471     0:03:27.916     720,936,960     27,740          
00387.M2TS      1:07:38.387     0:07:10.346     1,553,301,504   28,875          
00419.M2TS      1:14:48.734     0:03:30.335     700,305,408     26,636          
00389.M2TS      1:18:19.069     0:01:15.950     274,329,600     28,895          
00420.M2TS      1:19:35.020     0:01:34.177     312,514,560     26,547          
00391.M2TS      1:21:09.197     0:07:26.487     1,610,483,712   28,856          
00421.M2TS      1:28:35.685     0:03:06.394     667,994,112     28,670          
00394.M2TS      1:31:42.079     0:04:05.370     884,656,128     28,843          
00422.M2TS      1:35:47.449     0:02:21.641     476,166,144     26,894          
00396.M2TS      1:38:09.091     0:03:40.929     791,697,408     28,668          
00423.M2TS      1:41:50.020     0:00:45.545     161,224,704     28,319          
00398.M2TS      1:42:35.565     0:01:41.351     360,222,720     28,434          
00424.M2TS      1:44:16.917     0:00:43.710     145,311,744     26,595          
00400.M2TS      1:45:00.627     0:03:31.878     760,670,208     28,721          
00425.M2TS      1:48:32.505     0:01:34.052     330,921,984     28,148          
00402.M2TS      1:50:06.557     0:01:08.109     249,397,248     29,294          
00426.M2TS      1:51:14.667     0:02:51.921     575,551,488     26,782          
00404.M2TS      1:54:06.589     0:12:06.142     2,627,137,536   28,944          
00427.M2TS      2:06:12.731     0:01:38.098     338,116,608     27,574          
00406.M2TS      2:07:50.829     0:03:23.536     733,458,432     28,829          
00428.M2TS      2:11:14.366     0:01:18.578     279,269,376     28,432          
00408.M2TS      2:12:32.944     0:10:58.240     2,393,954,304   29,095          













Spider-Man: Into the Spider-Verse 2018 1080p Blu-ray AVC DTS-HD MA 5.1-CiNEMATiC screenshots


Spider-Man: Into the Spider-Verse 2018 1080p Blu-ray AVC DTS-HD MA 5.1-CiNEMATiC screenshotsSpider-Man: Into the Spider-Verse 2018 1080p Blu-ray AVC DTS-HD MA 5.1-CiNEMATiC screenshotsSpider-Man: Into the Spider-Verse 2018 1080p Blu-ray AVC DTS-HD MA 5.1-CiNEMATiC screenshots

TitleNgười Nhện: Vũ Trụ Mới
Year2018
GenreAnimation
Rating8.4 (383,097 votes)
PlotPhil Lord and Christopher Miller, the creative minds behind The Lego Movie and 21 Jump Street, bring their unique talents to a fresh vision of a different Spider-Man Universe, with a groundbreaking visual style that's the first of its kind. "Spider-Man(TM): Into the Spider-Verse" introduces Brooklyn teen Miles Morales (Shameik Moore), and the limitless possibilities of the Spider-Verse, where more than one can wear the mask. Written by Sony Pictures
DirectorBob Persichetti / Peter Ramsey / Rodney Rothman
CastsShameik Moore / Jake Johnson / Hailee Steinfeld / Mahershala Ali / Brian Tyree Henry…
Runtime117 min
Người Nhện: Vũ Trụ Mới

Home 2015 mHD BluRay DD5.1 x264-TRiMTrolls World Tour 2020 1080p AMZN WEB-DL DDP5.1 H.264-TEPES  Trollhunters S01 2016 ViE 720p WEBRip AAC x264Home 2015 ViE mHD BluRay DD5.1 x264-TRiMJack and the Cuckoo-Clock Heart 2013 ViE mHD BluRay DD5.1 x264-EPiK One Punch Man S02 mHD BluRay FLAC2.0 x264-TRiM