NetHD.org

Nâng Cấp RatioTài Khoản VIPDonate VDP

The Universe Seasons 1-6 2007-2012 1080p BluRay Remux AVC DD2.0

Download The Universe Seasons 1-6 2007-2012 1080p BluRay Remux AVC DD2.0 
Client Khuyến nghị cài đặt sử dụng phần mềm qbittorrent để download.
DescriptionThế Giới Vũ Trụ
Basic Info
Uploaded byNúp Lùm at 2020-03-01 09:38:40
Action
Hot Meter
  • Views: 453
  • Hits: 82
  • Snatched: 24 x time(s)
  • Last Action: 2021-03-06 21:28:32
Peers8 Seeder | 0 Leecher


The Universe Seasons 1-6 2007-2012 1080p BluRay Remux AVC DD2.0 screenshots
The Universe Seasons 1-6 2007-2012 1080p BluRay Remux AVC DD2.0 screenshots
The Universe Seasons 1-6 2007-2012 1080p BluRay Remux AVC DD2.0 screenshots
The Universe Seasons 1-6 2007-2012 1080p BluRay Remux AVC DD2.0 screenshots
The Universe Seasons 1-6 2007-2012 1080p BluRay Remux AVC DD2.0 screenshots
The Universe Seasons 1-6 2007-2012 1080p BluRay Remux AVC DD2.0 screenshots












The Universe Seasons 1-6 2007-2012 1080p BluRay Remux AVC DD2.0 screenshots


General
Unique ID                                : 188536297797716578491995200705658327341 (0x8DD6C528C37B3DF3ADB444C86307912D)
Complete name                            : J:\The.Universe.1-7.Seasons.2007-2012.1080p.BluRay.Remux.AVC\The.Universe.Season.1\The.Universe.S01E01.Secrets.of.the.Sun.BluRay-Remux.1080p.ENG.RUS.mkv
Format                                   : Matroska
Format version                           : Version 4 / Version 2
File size                                : 7.22 GiB
Duration                                 : 44 min 7 s
Overall bit rate mode                    : Variable
Overall bit rate                         : 23.4 Mb/s
Encoded date                             : UTC 2014-05-03 19:51:20
Writing application                      : mkvmerge v6.8.0 ('Theme for Great Cities') 32bit built on Mar  2 2014 21:27:07
Writing library                          : libebml v1.3.0 + libmatroska v1.4.1

Video
ID                                       : 1
Format                                   : AVC
Format/Info                              : Advanced Video Codec
Format profile                           : High@L4.1
Format settings, CABAC                   : Yes
Format settings, ReFrames                : 4 frames
Codec ID                                 : V_MPEG4/ISO/AVC
Duration                                 : 44 min 7 s
Bit rate mode                            : Variable
Bit rate                                 : 22.6 Mb/s
Maximum bit rate                         : 40.0 Mb/s
Width                                    : 1 920 pixels
Height                                   : 1 080 pixels
Display aspect ratio                     : 16:9
Frame rate mode                          : Constant
Frame rate                               : 23.976 (24000/1001) FPS
Color space                              : YUV
Chroma subsampling                       : 4:2:0
Bit depth                                : 8 bits
Scan type                                : Progressive
Bits/(Pixel*Frame)                       : 0.454
Stream size                              : 6.95 GiB (96%)
Default                                  : Yes
Forced                                   : No
Color range                              : Limited
Color primaries                          : BT.709
Transfer characteristics                 : BT.709
Matrix coefficients                      : BT.709

Audio #1
ID                                       : 2
Format                                   : AC-3
Format/Info                              : Audio Coding 3
Format settings, Endianness              : Big
Codec ID                                 : A_AC3
Duration                                 : 44 min 7 s
Bit rate mode                            : Constant
Bit rate                                 : 192 kb/s
Channel(s)                               : 2 channels
Channel positions                        : Front: L R
Sampling rate                            : 48.0 kHz
Frame rate                               : 31.250 FPS (1536 spf)
Bit depth                                : 16 bits
Compression mode                         : Lossy
Stream size                              : 60.6 MiB (1%)
Language                                 : Russian
Service kind                             : Complete Main
Default                                  : Yes
Forced                                   : No

Audio #2
ID                                       : 3
Format                                   : AC-3
Format/Info                              : Audio Coding 3
Format settings, Endianness              : Big
Codec ID                                 : A_AC3
Duration                                 : 44 min 7 s
Bit rate mode                            : Constant
Bit rate                                 : 224 kb/s
Channel(s)                               : 2 channels
Channel positions                        : Front: L R
Sampling rate                            : 48.0 kHz
Frame rate                               : 31.250 FPS (1536 spf)
Bit depth                                : 16 bits
Compression mode                         : Lossy
Stream size                              : 70.7 MiB (1%)
Language                                 : English
Service kind                             : Complete Main
Default                                  : No
Forced                                   : No

Text
ID                                       : 4
Format                                   : UTF-8
Codec ID                                 : S_TEXT/UTF8
Codec ID/Info                            : UTF-8 Plain Text
Language                                 : English
Default                                  : Yes
Forced                                   : No












The Universe Seasons 1-6 2007-2012 1080p BluRay Remux AVC DD2.0 screenshots


The Universe Seasons 1-6 2007-2012 1080p BluRay Remux AVC DD2.0 screenshotsThe Universe Seasons 1-6 2007-2012 1080p BluRay Remux AVC DD2.0 screenshotsThe Universe Seasons 1-6 2007-2012 1080p BluRay Remux AVC DD2.0 screenshots
The Universe Seasons 1-6 2007-2012 1080p BluRay Remux AVC DD2.0 screenshotsThe Universe Seasons 1-6 2007-2012 1080p BluRay Remux AVC DD2.0 screenshotsThe Universe Seasons 1-6 2007-2012 1080p BluRay Remux AVC DD2.0 screenshots
The Universe Seasons 1-6 2007-2012 1080p BluRay Remux AVC DD2.0 screenshotsThe Universe Seasons 1-6 2007-2012 1080p BluRay Remux AVC DD2.0 screenshotsThe Universe Seasons 1-6 2007-2012 1080p BluRay Remux AVC DD2.0 screenshots
The Universe Seasons 1-6 2007-2012 1080p BluRay Remux AVC DD2.0 screenshotsThe Universe Seasons 1-6 2007-2012 1080p BluRay Remux AVC DD2.0 screenshotsThe Universe Seasons 1-6 2007-2012 1080p BluRay Remux AVC DD2.0 screenshots
The Universe Seasons 1-6 2007-2012 1080p BluRay Remux AVC DD2.0 screenshotsThe Universe Seasons 1-6 2007-2012 1080p BluRay Remux AVC DD2.0 screenshotsThe Universe Seasons 1-6 2007-2012 1080p BluRay Remux AVC DD2.0 screenshots












The Universe Seasons 1-6 2007-2012 1080p BluRay Remux AVC DD2.0 screenshots
The Universe Seasons 1-6 2007-2012 1080p BluRay Remux AVC DD2.0 screenshots
Download, seed, enjoy and comment. If you are too
lazy to comment at least click on \"say thanks\" button.

TitleThe Universe
Year2007
GenreDocumentary
Rating8.7 (5,293 votes)
Plotn/A
Directorn/A
CastsErik Thompson / Alex Filippenko / Laura Danly / Clifford V. Johnson / Michio Kaku…
Runtime45 min
The Universe

No keyword! (Click to edit!)

Circle of Life - Baby Planet 2011 1080p BluRay x264 DTS 5.1-MiSFiTSNight on Earth S01 2160p WEBRip DDP5.1 HDR x265-ChotabMagie der Moore 2015 1080p BluRay DTS x264-TayTOSouth Pacific 2009 PROPER 720p BluRay DTS x264-NaRBThe Neal Morse Band - The Great Adventour - Live in BRNO 2019D-Day Normandy 1944 2014 2160p USA UHD Blu-ray HEVC DTS-HD MA 5.1-AdBlue